torrents rarbg
Catalog Top 10

RARBG
Home
Movies
XXX
TV Shows
Games
Music
Anime
Apps
Doc
Other
Non XXX

American.Underdog.2021.BluRay.1080p.Hindi.English.DD5.1.ESub.x264-themoviesboss

Torrent:


American.Underdog.2021.BluRay.1080p.Hindi.English.DD5.1.ESub.x264-themoviesboss
VPN:
Downloading torrents is getting riskier every day. Use a VPN to make yourself hidden while downloading torrents.
By using a VPN , your ISP and Government Agencies will not be able to spy on you, neither would they be able to track your online activity!
Poster:
American.Underdog.2021.BluRay.1080p.Hindi.English.DD5.1.ESub.x264-themoviesboss
Others:
Codec Name S. L. Size

 

Description:



American.Underdog.2021.BluRay.1080p.Hindi.English.DD5.1.ESub.x264-themoviesboss




Media Info



Format : Matroska
Format version : Version 4
File size : 4.94 GiB
Duration : 1 h 52 min
Overall bit rate : 6 307 kb/s
Movie name : Encoded By themoviesboss
Encoded date : UTC 2022-06-25 13:01:26
Writing application : mkvmerge
Writing library : libebml v1.4.2 + libmatroska v1.6.4

Video
ID : 1
Format : AVC
Format/Info : Advanced Video Codec
Format profile : [emailĀ protected]
Format settings : CABAC / 4 Ref Frames
Format settings, CABAC : Yes
Format settings, Reference frames : 4 frames
Codec ID : V_MPEG4/ISO/AVC
Duration : 1 h 52 min
Bit rate : 4 999 kb/s
Width : 1 920 pixels
Height : 804 pixels
Display aspect ratio : 2.40:1
Frame rate mode : Constant
Frame rate : 23.976 (24000/1001) FPS
Color space : YUV
Chroma subsampling : 4:2:0
Bit depth : 8 bits
Scan type : Progressive
Bits/(Pixel*Frame) : 0.135
Stream size : 3.92 GiB (79%)
Title : themoviesboss
Writing library : x264 core 164 r3065 ae03d92
Default : Yes
Forced : No
Color range : Limited
Color primaries : BT.709
Transfer characteristics : BT.709
Matrix coefficients : BT.709

Audio #1
ID : 2
Format : AC-3
Format/Info : Audio Coding 3
Commercial name : Dolby Digital
Codec ID : A_AC3
Duration : 1 h 52 min
Bit rate mode : Constant
Bit rate : 640 kb/s
Channel(s) : 6 channels
Channel layout : L R C LFE Ls Rs
Sampling rate : 48.0 kHz
Frame rate : 31.250 FPS (1536 SPF)
Compression mode : Lossy
Delay relative to video : -5 ms
Stream size : 513 MiB (10%)
Title : themoviesboss
Language : Hindi
Service kind : Complete Main
Default : Yes
Forced : No

Audio #2
ID : 3
Format : AC-3
Format/Info : Audio Coding 3
Commercial name : Dolby Digital
Codec ID : A_AC3
Duration : 1 h 52 min
Bit rate mode : Constant
Bit rate : 640 kb/s
Channel(s) : 6 channels
Channel layout : L R C LFE Ls Rs
Sampling rate : 48.0 kHz
Frame rate : 31.250 FPS (1536 SPF)
Compression mode : Lossy
Delay relative to video : -5 ms
Stream size : 513 MiB (10%)
Title : themoviesboss
Language : English
Service kind : Complete Main
Default : No
Forced : No

Text
ID : 4
Format : PGS
Muxing mode : zlib
Codec ID : S_HDMV/PGS
Codec ID/Info : Picture based subtitle format used on BDs/HD-DVDs
Duration : 1 h 51 min
Bit rate : 48.0 kb/s
Count of elements : 3594
Stream size : 38.3 MiB (1%)
Title : themoviesboss
Language : English
Default : Yes
Forced : No

Chapters
00:00:00.000 : en:Chapter 1
00:06:33.435 : en:Chapter 2
00:12:32.126 : en:Chapter 3
00:19:57.238 : en:Chapter 4
00:26:11.820 : en:Chapter 5
00:32:20.147 : en:Chapter 6
00:37:40.967 : en:Chapter 7
00:44:53.524 : en:Chapter 8
00:49:00.229 : en:Chapter 9
00:53:06.809 : en:Chapter 10
00:58:52.362 : en:Chapter 11
01:04:59.854 : en:Chapter 12
01:10:07.453 : en:Chapter 13
01:15:53.215 : en:Chapter 14
01:23:37.638 : en:Chapter 15
01:31:41.538 : en:Chapter 16



Screenshots:











Don't Forget to Seed


Downloads: 49
Category: Movies/Dubs/Dual Audio
Size: 4.9 GB
Show Files Ā»
files
Added: 2022-06-26 10:07:12
Language: Spanish
Title: American Underdog
Rating: 65
Genres: Drama
Year: 2021
Summery: The true story of Kurt Warner, who went from a stockboy at a grocery store to a two-time NFL MVP, Super Bowl champion, and Hall of Fame quarterback.
Peers: Seeders : 1 , Leechers : 1
Tags: Biography Drama Sports 
Release name: American.Underdog.2021.BluRay.1080p.Hindi.English.DD5.1.ESub.x264-themoviesboss
Trackers:

udp://tracker.tiny-vps.com:6969/announce

udp://fasttracker.foreverpirates.co:6969/announce

udp://tracker.opentrackr.org:1337/announce

udp://explodie.org:6969/announce

udp://open.stealth.si:80/announce

udp://tracker.cyberia.is:6969/announce

udp://ipv4.tracker.harry.lu:80/announce

udp://tracker.uw0.xyz:6969/announce

udp://tracker.dler.org:6969/announce

udp://9.rarbg.to:2710/announce

udp://public.publictracker.xyz:6969/announce

udp://torrentclub.space:6969/announce

udp://tracker.altrosky.nl:6969/announce

udp://tracker2.dler.com:80/announce

udp://tracker.jordan.im:6969/announce





By using this site you agree to and accept our user agreement. If you havent read the user agreement please do so here