torrents rarbg
Catalog Top 10

RARBG
Home
Movies
XXX
TV Shows
Games
Music
Anime
Apps
Doc
Other
Non XXX

Catch.Me.If.You.Can.2002.1080p.BluRay.x265.HEVC.AAC 5.1.Gypsy

Torrent:


Catch.Me.If.You.Can.2002.1080p.BluRay.x265.HEVC.AAC 5.1.Gypsy
VPN:
Downloading torrents is getting riskier every day. Use a VPN to make yourself hidden while downloading torrents.
By using a VPN , your ISP and Government Agencies will not be able to spy on you, neither would they be able to track your online activity!
Poster:
Catch.Me.If.You.Can.2002.1080p.BluRay.x265.HEVC.AAC 5.1.Gypsy
Others:
Codec Name S. L. Size

 

Description:

Catch.Me.If.You.Can.2002.1080p.BluRay.x265.HEVC.AAC 5.1.Gypsy



A true story about Frank Abagnale Jr. who, before his 19th birthday, successfully conned millions of dollars worth of checks as a Pan Am pilot, doctor, and legal prosecutor. An FBI agent makes it his mission to put him behind bars. But Frank not only eludes capture, he revels in the pursuit.

SCREENSHOTS



'







INFO

Format : Matroska
Format version : Version 4
File size : 1.98 GiB
Duration : 2 h 20 min
Overall bit rate : 2 010 kb/s
Frame rate : 23.976 FPS
Movie name : Catch.Me.If.You.Can.2002.1080p.BluRay.x265.HEVC.AAC 5.1.Gypsy
Encoded date : 2024-04-14 02:04:47 UTC
Writing application : mkvmerge v83.0 ('Circle Of Friends') 64-bit
Writing library : libebml v1.4.5 + libmatroska v1.7.1

Video
ID : 1
Format : HEVC
Format/Info : High Efficiency Video Coding
Format profile : Main@L4@Main
Codec ID : V_MPEGH/ISO/HEVC
Duration : 2 h 20 min
Bit rate : 1 751 kb/s
Width : 1 920 pixels
Height : 1 036 pixels
Display aspect ratio : 1.85:1
Frame rate mode : Constant
Frame rate : 23.976 (24000/1001) FPS
Color space : YUV
Chroma subsampling : 4:2:0 (Type 0)
Bit depth : 8 bits
Bits/(Pixel*Frame) : 0.037
Stream size : 1.72 GiB (87%)
Writing library : x265 3.5+1-f0c1022b6:[Windows][GCC 10.2.0][64 bit] 8bit+10bit+12bit
Encoding settings : cpuid=1111039 / frame-threads=4 / numa-pools=16 / wpp / no-pmode / no-pme / no-psnr / no-ssim / log-level=2 / input-csp=1 / input-res=1920x1036 / interlace=0 / total-frames=0 / level-idc=0 / high-tier=1 / uhd-bd=0 / ref=4 / no-allow-non-conformance / no-repeat-headers / annexb / no-aud / no-eob / no-eos / no-hrd / info / hash=0 / no-temporal-layers / open-gop / min-keyint=24 / keyint=240 / gop-lookahead=0 / bframes=4 / b-adapt=2 / b-pyramid / bframe-bias=0 / rc-lookahead=25 / lookahead-slices=4 / scenecut=40 / no-hist-scenecut / radl=0 / no-splice / no-intra-refresh / ctu=64 / min-cu-size=8 / rect / no-amp / max-tu-size=32 / tu-inter-depth=1 / tu-intra-depth=1 / limit-tu=0 / rdoq-level=2 / dynamic-rd=0.00 / no-ssim-rd / signhide / no-tskip / nr-intra=0 / nr-inter=0 / no-constrained-intra / strong-intra-smoothing / max-merge=3 / limit-refs=3 / limit-modes / me=3 / subme=3 / merange=57 / temporal-mvp / no-frame-dup / no-hme / weightp / no-weightb / no-analyze-src-pics / deblock=0:0 / sao / no-sao-non-deblock / rd=4 / selective-sao=4 / no-early-skip / rskip / no-fast-intra / no-tskip-fast / no-cu-lossless / no-b-intra / no-splitrd-skip / rdpenalty=0 / psy-rd=2.00 / psy-rdoq=1.00 / no-rd-refine / no-lossless / cbqpoffs=0 / crqpoffs=0 / rc=abr / bitrate=1750 / qcomp=0.60 / qpstep=4 / stats-write=0 / stats-read=2 / cplxblur=20.0 / qblur=0.5 / ipratio=1.40 / pbratio=1.30 / aq-mode=2 / aq-strength=1.00 / cutree / zone-count=0 / no-strict-cbr / qg-size=32 / no-rc-grain / qpmax=69 / qpmin=0 / no-const-vbv / sar=1 / overscan=0 / videoformat=5 / range=0 / colorprim=1 / transfer=1 / colormatrix=1 / chromaloc=1 / chromaloc-top=0 / chromaloc-bottom=0 / display-window=0 / cll=0,0 / min-luma=0 / max-luma=255 / log2-max-poc-lsb=8 / vui-timing-info / vui-hrd-info / slices=1 / no-opt-qp-pps / no-opt-ref-list-length-pps / no-multi-pass-opt-rps / scenecut-bias=0.05 / no-opt-cu-delta-qp / no-aq-motion / no-sbrc / no-hdr10 / no-hdr10-opt / no-dhdr10-opt / no-idr-recovery-sei / analysis-reuse-level=0 / analysis-save-reuse-level=0 / analysis-load-reuse-level=0 / scale-factor=0 / refine-intra=0 / refine-inter=0 / refine-mv=1 / refine-ctu-distortion=0 / no-limit-sao / ctu-info=0 / no-lowpass-dct / refine-analysis-type=0 / copy-pic=1 / max-ausize-factor=1.0 / no-dynamic-refine / no-single-sei / no-hevc-aq / no-svt / no-field / qp-adaptation-range=1.00 / scenecut-aware-qp=0conformance-window-offsets / right=0 / bottom=0 / decoder-max-rate=0 / no-vbv-live-multi-pass / no-mcstf
Default : Yes
Forced : No
Color range : Limited
Color primaries : BT.709
Transfer characteristics : BT.709
Matrix coefficients : BT.709

Audio
ID : 2
Format : AAC LC
Format/Info : Advanced Audio Codec Low Complexity
Codec ID : A_AAC-2
Duration : 2 h 20 min
Bit rate : 257 kb/s
Channel(s) : 6 channels
Channel layout : C L R Ls Rs LFE
Sampling rate : 48.0 kHz
Frame rate : 46.875 FPS (1024 SPF)
Compression mode : Lossy
Delay relative to video : -21 ms
Stream size : 259 MiB (13%)
Title : DTS-HD Master Audio / 5.1 / 48 kHz / 4020 kbps / 24-bit
Language : English
Default : Yes
Forced : No

Menu
00:00:00.000 : My Name Is Frank Abagnale, Jr.
00:04:43.909 : Carl Hanratty
00:10:59.450 : Lifestyle Changes
00:18:35.281 : The Substitute
00:25:56.430 : Running Away
00:28:58.737 : Becoming a Pilot
00:33:59.663 : Getting It All Back
00:38:37.065 : Dead Head
00:42:09.944 : Check Cashing
00:49:06.068 : Barry Allen, Secret Service
00:56:54.870 : The James Bond of the Sky
01:03:42.527 : He's A Kid
01:10:05.952 : Dr. Frank Conners
01:22:26.733 : Becoming a Lawyer
01:32:10.400 : Calling a Truce
01:38:26.067 : What's In a Name
01:43:32.581 : New Recruiting Program
01:49:50.417 : Out of Control
01:58:00.907 : Family News
02:04:01.601 : Financial Crime Unit
02:12:33.362 : Late for Work
02:16:00.319 : End Credits

Downloads: 337
Category: Movies/HEVC/x265
Size: 2 GB
Show Files »
files
Added: 2024-04-14 10:07:52
Language: English
Title: Catch Me If You Can
Rating: 77
Genres: CrimeDrama
Year: 2002
Summery: Frank W. Abagnale Jr. is a cunning con man -- posing as a doctor, lawyer and pilot all before turning 21. He's also a deft forger, and his work attracts the attention of FBI agent Carl Hanratty, who makes it his mission to put Frank behind bars. But Frank not only eludes capture, he revels in the pursuit, even taking time to taunt Carl by phone.
Peers: Seeders : 121 , Leechers : 13
Release name: Catch.Me.If.You.Can.2002.1080p.BluRay.x265.HEVC.AAC 5.1.Gypsy
Trackers:

udp://open.stealth.si:80/announce

udp://tracker.tiny-vps.com:6969/announce

udp://tracker.opentrackr.org:1337/announce

udp://tracker.torrent.eu.org:451/announce

udp://explodie.org:6969/announce

udp://tracker.cyberia.is:6969/announce

udp://ipv4.tracker.harry.lu:80/announce

udp://p4p.arenabg.com:1337/announce

udp://tracker.birkenwald.de:6969/announce

udp://tracker.moeking.me:6969/announce

udp://opentor.org:2710/announce

udp://tracker.dler.org:6969/announce

udp://uploads.gamecoast.net:6969/announce

https://tracker.foreverpirates.co:443/announce

http://tracker.files.fm:6969/announce





By using this site you agree to and accept our user agreement. If you havent read the user agreement please do so here