torrents rarbg
Catalog Top 10

RARBG
Home
Movies
XXX
TV Shows
Games
Music
Anime
Apps
Doc
Other
Non XXX

Confidential Assignment 2 International (2022) (1080p BluRay x265 HEVC 10bit EAC3 5.1 Korean - REX) [PxL]

Torrent:


Confidential Assignment 2 International (2022) (1080p BluRay x265 HEVC 10bit EAC3 5.1 Korean - REX) [PxL]
VPN:
Downloading torrents is getting riskier every day. Use a VPN to make yourself hidden while downloading torrents.
By using a VPN , your ISP and Government Agencies will not be able to spy on you, neither would they be able to track your online activity!
Poster:
Confidential Assignment 2 International (2022) (1080p BluRay x265 HEVC 10bit EAC3 5.1 Korean - REX) [PxL]
Others:
Codec Name S. L. Size

 

Description:


Confidential Assignment 2 International (2022) (1080p BluRay x265 HEVC 10bit EAC3 5.1 Korean - REX) [PxL] [3.47 GB]



------- RELEASE NOTES --------



? Audio Encoded Using Dolby Encoding Engine!



SCREEN SHOTS ?








Quote:

Seed Back & Enjoy the Release ?



Code:

MEDIAINFO ?



General
Unique ID : 237387927164940526668236169579800501768 (0xB2974071CA3D05F025A9D90F08731E08)
Complete name : Confidential Assignment 2 International (2022) (1080p BluRay x265 HEVC 10bit EAC3 5.1 Korean - REX) [PxL].mkv
Format : Matroska
Format version : Version 4
File size : 3.47 GiB
Duration : 2 h 8 min
Overall bit rate : 3 857 kb/s
Frame rate : 23.976 FPS
Movie name : Confidential Assignment 2: International (2022) | Encoded by REX [PxL]
Encoded date : 2024-03-26 16:10:29 UTC
Writing application : mkvmerge v83.0 ('Circle Of Friends') 64-bit
Writing library : libebml v1.4.5 + libmatroska v1.7.1

Video
ID : 1
Format : HEVC
Format/Info : High Efficiency Video Coding
Format profile : Main 10@L4@Main
Codec ID : V_MPEGH/ISO/HEVC
Duration : 2 h 8 min
Bit rate : 3 063 kb/s
Width : 1 920 pixels
Height : 804 pixels
Display aspect ratio : 2.39:1
Frame rate mode : Constant
Frame rate : 23.976 (24000/1001) FPS
Color space : YUV
Chroma subsampling : 4:2:0
Bit depth : 10 bits
Bits/(Pixel*Frame) : 0.083
Stream size : 2.75 GiB (79%)
Writing library : x265 3.5+153+15-fc339385e:[Windows][MSVC 1937][64 bit] 10bit
Encoding settings : cpuid=1111039 / frame-threads=4 / numa-pools=24 / wpp / no-pmode / no-pme / no-psnr / no-ssim / log-level=2 / input-csp=1 / input-res=1920x804 / interlace=0 / total-frames=185080 / level-idc=0 / high-tier=1 / uhd-bd=0 / ref=4 / no-allow-non-conformance / no-repeat-headers / annexb / no-aud / no-eob / no-eos / no-hrd / info / hash=0 / temporal-layers=0 / open-gop / min-keyint=25 / keyint=250 / gop-lookahead=0 / bframes=8 / b-adapt=2 / b-pyramid / bframe-bias=0 / rc-lookahead=80 / lookahead-slices=4 / scenecut=40 / no-hist-scenecut / radl=0 / no-splice / no-intra-refresh / ctu=64 / min-cu-size=8 / no-rect / no-amp / max-tu-size=32 / tu-inter-depth=1 / tu-intra-depth=1 / limit-tu=0 / rdoq-level=2 / dynamic-rd=0.00 / no-ssim-rd / signhide / no-tskip / nr-intra=0 / nr-inter=0 / no-constrained-intra / no-strong-intra-smoothing / max-merge=3 / limit-refs=3 / limit-modes / me=3 / subme=5 / merange=57 / temporal-mvp / no-frame-dup / no-hme / weightp / no-weightb / no-analyze-src-pics / deblock=0:0 / no-sao / no-sao-non-deblock / rd=4 / selective-sao=0 / no-early-skip / no-rskip / no-fast-intra / no-tskip-fast / no-cu-lossless / no-b-intra / no-splitrd-skip / rdpenalty=0 / psy-rd=1.30 / psy-rdoq=2.00 / no-rd-refine / no-lossless / cbqpoffs=0 / crqpoffs=0 / rc=crf / crf=19.0 / qcomp=0.60 / qpstep=4 / stats-write=0 / stats-read=0 / ipratio=1.40 / pbratio=1.30 / aq-mode=4 / aq-strength=1.10 / aq-bias-strength=1.00 / cutree / zone-count=0 / no-strict-cbr / qg-size=32 / no-rc-grain / qpmax=69 / qpmin=0 / no-const-vbv / sar=0 / overscan=0 / videoformat=5 / range=0 / colorprim=1 / transfer=1 / colormatrix=1 / chromaloc=0 / display-window=0 / cll=0,0 / min-luma=0 / max-luma=1023 / log2-max-poc-lsb=8 / vui-timing-info / vui-hrd-info / slices=1 / no-opt-qp-pps / no-opt-ref-list-length-pps / no-multi-pass-opt-rps / scenecut-bias=0.00 / no-opt-cu-delta-qp / no-aq-motion / no-hdr10 / no-hdr10-opt / no-dhdr10-opt / no-idr-recovery-sei / analysis-reuse-level=0 / analysis-save-reuse-level=0 / analysis-load-reuse-level=0 / scale-factor=0 / refine-intra=0 / refine-inter=0 / refine-mv=1 / refine-ctu-distortion=0 / no-limit-sao / ctu-info=0 / no-lowpass-dct / refine-analysis-type=0 / copy-pic=1 / max-ausize-factor=1.0 / no-dynamic-refine / no-single-sei / no-hevc-aq / no-svt / no-field / qp-adaptation-range=1.00 / scenecut-aware-qp=0 / conformance-window-offsets / right=0 / bottom=0 / decoder-max-rate=0 / no-vbv-live-multi-pass / no-mcstf / no-sbrc
Default : Yes
Forced : No
Color range : Limited
Color primaries : BT.709
Transfer characteristics : BT.709
Matrix coefficients : BT.709

Audio
ID : 2
Format : E-AC-3
Format/Info : Enhanced AC-3
Commercial name : Dolby Digital Plus
Codec ID : A_EAC3
Duration : 2 h 8 min
Bit rate mode : Constant
Bit rate : 768 kb/s
Channel(s) : 6 channels
Channel layout : L R C LFE Ls Rs
Sampling rate : 48.0 kHz
Frame rate : 31.250 FPS (1536 SPF)
Compression mode : Lossy
Stream size : 707 MiB (20%)
Language : Korean
Service kind : Complete Main
Default : Yes
Forced : No

Text #1
ID : 3
Format : PGS
Muxing mode : zlib
Codec ID : S_HDMV/PGS
Codec ID/Info : Picture based subtitle format used on BDs/HD-DVDs
Duration : 2 h 4 min
Bit rate : 26.8 kb/s
Frame rate : 0.399 FPS
Count of elements : 2978
Stream size : 23.8 MiB (1%)
Language : Korean
Default : No
Forced : No

Text #2
ID : 4
Format : PGS
Muxing mode : zlib
Codec ID : S_HDMV/PGS
Codec ID/Info : Picture based subtitle format used on BDs/HD-DVDs
Duration : 2 h 5 min
Bit rate : 29.8 kb/s
Frame rate : 0.376 FPS
Count of elements : 2832
Stream size : 26.8 MiB (1%)
Language : English
Default : No
Forced : No

Text #3
ID : 5
Format : PGS
Muxing mode : zlib
Codec ID : S_HDMV/PGS
Codec ID/Info : Picture based subtitle format used on BDs/HD-DVDs
Duration : 2 h 1 min
Bit rate : 1 771 b/s
Frame rate : 0.036 FPS
Count of elements : 265
Stream size : 1.54 MiB (0%)
Language : Korean
Default : No
Forced : No

Menu
00:00:00.000 : en:chapter01
00:10:15.156 : en:chapter02
00:16:36.662 : en:chapter03
00:29:07.370 : en:chapter04
00:41:18.476 : en:chapter05
00:50:42.372 : en:chapter06
01:00:47.685 : en:chapter07
01:09:24.702 : en:chapter08
01:15:55.092 : en:chapter09
01:24:35.612 : en:chapter10
01:37:55.411 : en:chapter11
01:43:32.748 : en:chapter12
01:50:51.186 : en:chapter13
02:04:20.369 : en:chapter14



Quote:

Source : BluRay.Remux.1080p.AVC.DTS-HD.MA.5.1-BeerGAS (29.65 GB)

Downloads: 124
Category: Movies/HEVC/x265
Size: 3.5 GB
Show Files ยป
files
Added: 2024-04-14 04:07:11
Language: Korean
Title: Confidential Assignment 2: Internat...
Rating: 70
Genres: ActionComedy
Year: 2022
Summery: Im Chul Ryung heads back to South Korea in pursuit of a brutal and secret criminal organization.
Peers: Seeders : 62 , Leechers : 10
Tags: BluRay x265 HEVC 10bit Korean PxL 
Release name: Confidential Assignment 2 International (2022) (1080p BluRay x265 HEVC 10bit EAC3 5.1 Korean - REX) [PxL]
Trackers:

udp://tracker.leechers-paradise.org:6969/announce





By using this site you agree to and accept our user agreement. If you havent read the user agreement please do so here