torrents rarbg
Catalog Top 10

RARBG
Home
Movies
XXX
TV Shows
Games
Music
Anime
Apps
Doc
Other
Non XXX

Rio.2011.1080p.BluRay.x265.HEVC.AAC 5.1.Gypsy

Torrent:


Rio.2011.1080p.BluRay.x265.HEVC.AAC 5.1.Gypsy
VPN:
Downloading torrents is getting riskier every day. Use a VPN to make yourself hidden while downloading torrents.
By using a VPN , your ISP and Government Agencies will not be able to spy on you, neither would they be able to track your online activity!
Poster:
Rio.2011.1080p.BluRay.x265.HEVC.AAC 5.1.Gypsy
Others:
Codec Name S. L. Size

 

Description:

Rio.2011.1080p.BluRay.x265.HEVC.AAC 5.1.Gypsy



Captured by smugglers when he was just a hatchling, a macaw named Blu never learned to fly and lives a happily domesticated life in Minnesota with his human friend, Linda. Blu is thought to be the last of his kind, but when word comes that Jewel, a lone female, lives in Rio de Janeiro, Blu and Linda go to meet her. Animal smugglers kidnap Blu and Jewel, but the pair soon escape and begin a perilous adventure back to freedom -- and Linda.

SCREENSHOTS











INFO

Format : Matroska
Format version : Version 4
File size : 1.35 GiB
Duration : 1 h 35 min
Overall bit rate : 2 009 kb/s
Frame rate : 23.976 FPS
Movie name : Rio.2011.1080p.BluRay.x265.HEVC.AAC 5.1.Gypsy
Encoded date : 2024-04-14 02:09:11 UTC
Writing application : mkvmerge v83.0 ('Circle Of Friends') 64-bit
Writing library : libebml v1.4.5 + libmatroska v1.7.1

Video
ID : 1
Format : HEVC
Format/Info : High Efficiency Video Coding
Format profile : Main@L4@Main
Codec ID : V_MPEGH/ISO/HEVC
Duration : 1 h 35 min
Bit rate : 1 750 kb/s
Width : 1 920 pixels
Height : 800 pixels
Display aspect ratio : 2.40:1
Frame rate mode : Constant
Frame rate : 23.976 (24000/1001) FPS
Color space : YUV
Chroma subsampling : 4:2:0 (Type 0)
Bit depth : 8 bits
Bits/(Pixel*Frame) : 0.048
Stream size : 1.17 GiB (87%)
Writing library : x265 3.5+1-f0c1022b6:[Windows][GCC 10.2.0][64 bit] 8bit+10bit+12bit
Encoding settings : cpuid=1111039 / frame-threads=4 / numa-pools=16 / wpp / no-pmode / no-pme / no-psnr / no-ssim / log-level=2 / input-csp=1 / input-res=1920x800 / interlace=0 / total-frames=0 / level-idc=0 / high-tier=1 / uhd-bd=0 / ref=4 / no-allow-non-conformance / no-repeat-headers / annexb / no-aud / no-eob / no-eos / no-hrd / info / hash=0 / no-temporal-layers / open-gop / min-keyint=24 / keyint=240 / gop-lookahead=0 / bframes=4 / b-adapt=2 / b-pyramid / bframe-bias=0 / rc-lookahead=25 / lookahead-slices=4 / scenecut=40 / no-hist-scenecut / radl=0 / no-splice / no-intra-refresh / ctu=64 / min-cu-size=8 / rect / no-amp / max-tu-size=32 / tu-inter-depth=1 / tu-intra-depth=1 / limit-tu=0 / rdoq-level=2 / dynamic-rd=0.00 / no-ssim-rd / signhide / no-tskip / nr-intra=0 / nr-inter=0 / no-constrained-intra / strong-intra-smoothing / max-merge=3 / limit-refs=3 / limit-modes / me=3 / subme=3 / merange=57 / temporal-mvp / no-frame-dup / no-hme / weightp / no-weightb / no-analyze-src-pics / deblock=0:0 / sao / no-sao-non-deblock / rd=4 / selective-sao=4 / no-early-skip / rskip / no-fast-intra / no-tskip-fast / no-cu-lossless / no-b-intra / no-splitrd-skip / rdpenalty=0 / psy-rd=2.00 / psy-rdoq=1.00 / no-rd-refine / no-lossless / cbqpoffs=0 / crqpoffs=0 / rc=abr / bitrate=1750 / qcomp=0.60 / qpstep=4 / stats-write=0 / stats-read=2 / cplxblur=20.0 / qblur=0.5 / ipratio=1.40 / pbratio=1.30 / aq-mode=2 / aq-strength=1.00 / cutree / zone-count=0 / no-strict-cbr / qg-size=32 / no-rc-grain / qpmax=69 / qpmin=0 / no-const-vbv / sar=1 / overscan=0 / videoformat=5 / range=0 / colorprim=1 / transfer=1 / colormatrix=1 / chromaloc=1 / chromaloc-top=0 / chromaloc-bottom=0 / display-window=0 / cll=0,0 / min-luma=0 / max-luma=255 / log2-max-poc-lsb=8 / vui-timing-info / vui-hrd-info / slices=1 / no-opt-qp-pps / no-opt-ref-list-length-pps / no-multi-pass-opt-rps / scenecut-bias=0.05 / no-opt-cu-delta-qp / no-aq-motion / no-sbrc / no-hdr10 / no-hdr10-opt / no-dhdr10-opt / no-idr-recovery-sei / analysis-reuse-level=0 / analysis-save-reuse-level=0 / analysis-load-reuse-level=0 / scale-factor=0 / refine-intra=0 / refine-inter=0 / refine-mv=1 / refine-ctu-distortion=0 / no-limit-sao / ctu-info=0 / no-lowpass-dct / refine-analysis-type=0 / copy-pic=1 / max-ausize-factor=1.0 / no-dynamic-refine / no-single-sei / no-hevc-aq / no-svt / no-field / qp-adaptation-range=1.00 / scenecut-aware-qp=0conformance-window-offsets / right=0 / bottom=0 / decoder-max-rate=0 / no-vbv-live-multi-pass / no-mcstf
Default : Yes
Forced : No
Color range : Limited
Color primaries : BT.709
Transfer characteristics : BT.709
Matrix coefficients : BT.709

Audio
ID : 2
Format : AAC LC
Format/Info : Advanced Audio Codec Low Complexity
Codec ID : A_AAC-2
Duration : 1 h 35 min
Bit rate : 257 kb/s
Channel(s) : 6 channels
Channel layout : C L R Ls Rs LFE
Sampling rate : 48.0 kHz
Frame rate : 46.875 FPS (1024 SPF)
Compression mode : Lossy
Delay relative to video : -21 ms
Stream size : 177 MiB (13%)
Title : Surround 5.1
Language : English
Default : Yes
Forced : No

Menu
00:00:00.000 : Chapter 1
00:06:34.853 : Chapter 2
00:12:16.611 : Chapter 3
00:16:13.139 : Chapter 4
00:21:29.497 : Chapter 5
00:23:46.008 : Chapter 6
00:28:57.194 : Chapter 7
00:34:11.925 : Chapter 8
00:36:53.545 : Chapter 9
00:39:27.657 : Chapter 10
00:43:17.762 : Chapter 11
00:45:48.537 : Chapter 12
00:50:03.167 : Chapter 13
00:52:58.217 : Chapter 14
00:57:37.371 : Chapter 15
01:00:49.646 : Chapter 16
01:03:39.691 : Chapter 17
01:07:57.365 : Chapter 18
01:11:47.512 : Chapter 19
01:15:32.028 : Chapter 20
01:19:40.943 : Chapter 21
01:21:19.333 : Chapter 22
01:23:43.477 : Chapter 23
01:26:38.985 : Chapter 24

Downloads: 64
Category: Movies/HEVC/x265
Size: 1.3 GB
Show Files ยป
files
Added: 2024-04-14 10:07:52
Language: English
Title: Rio
Rating: 65
Genres: AdventureAnimationComedyMusicalFamily
Year: 2011
Summery: From the makers of the hit "Ice Age" series comes "Rio," a comedy adventure about taking a walk on the wild side. Blu is a domesticated Macaw who never learned to fly, living a comfortable life with his owner and best friend Linda in the small town of Moose Lake, Minnesota. Blu and Linda think he's the last of his kind, but when they learn about another Macaw who lives in Rio de Janeiro, they head to the faraway and exotic land to find Jewel, Blu's female counterpart. Not long after they arrive, Blu and Jewel are kidnapped by a group of bungling animal smugglers. With the help of street smart Jewel, and a group of wise-cracking and smooth-talking city birds, Blu escapes. Now, with his new friends by his side, Blu will have to find the courage to learn to fly, thwart the kidnappers who are hot on their trail, and return to Linda, the best friend a bird ever had.
Peers: Seeders : 71 , Leechers : 6
Release name: Rio.2011.1080p.BluRay.x265.HEVC.AAC 5.1.Gypsy
Trackers:

udp://open.stealth.si:80/announce

udp://tracker.tiny-vps.com:6969/announce

udp://tracker.opentrackr.org:1337/announce

udp://tracker.torrent.eu.org:451/announce

udp://explodie.org:6969/announce

udp://tracker.cyberia.is:6969/announce

udp://ipv4.tracker.harry.lu:80/announce

udp://p4p.arenabg.com:1337/announce

udp://tracker.birkenwald.de:6969/announce

udp://tracker.moeking.me:6969/announce

udp://opentor.org:2710/announce

udp://tracker.dler.org:6969/announce

udp://uploads.gamecoast.net:6969/announce

https://tracker.foreverpirates.co:443/announce

http://tracker.files.fm:6969/announce





By using this site you agree to and accept our user agreement. If you havent read the user agreement please do so here