torrents rarbg
Catalog Top 10

RARBG
Home
Movies
XXX
TV Shows
Games
Music
Anime
Apps
Doc
Other
Non XXX

The Untouchables (1987) 1080p H264 AC-3 BDE

Torrent:


The Untouchables (1987) 1080p H264 AC-3 BDE
VPN:
Downloading torrents is getting riskier every day. Use a VPN to make yourself hidden while downloading torrents.
By using a VPN , your ISP and Government Agencies will not be able to spy on you, neither would they be able to track your online activity!
Poster:
The Untouchables (1987) 1080p H264 AC-3 BDE
Others:
Codec Name S. L. Size

 

Description:


https://www.imdb.com/title/tt0094226/
Director - Brian De Palma

Stars - Kevin Costner, Sean Connery, Robert De Niro

After building an empire with bootleg alcohol, legendary crime boss Al Capone rules Chicago with an iron fist. Though Prohibition Agent Eliot Ness attempts to take Capone down, even his best efforts fail due to widespread corruption within the Windy City's police force. Recruiting an elite group of lawmen who won't be swayed by bribes or fear, including Irish-American cop Jimmy Malone, Ness renews his determination to bring Capone to justice.

MediaInfo:
The Untouchables (1987) 1080p H264 AC-3.mkv
Format : Matroska
Format version : Version 4
File size : 7.06 GiB
Duration : 1 h 59 min
Overall bit rate : 8 462 kb/s
Frame rate : 23.976 FPS
Encoded date : 2024-04-09 05:07:33 UTC
Writing application : mkvmerge v83.0 ('Circle Of Friends') 64-bit
Writing library : libebml v1.4.5 + libmatroska v1.7.1

Video
ID : 1
Format : AVC
Format/Info : Advanced Video Codec
Format profile : [email protected]
Format settings : CABAC / 5 Ref Frames
Format settings, CABAC : Yes
Format settings, Reference frames : 5 frames
Codec ID : V_MPEG4/ISO/AVC
Duration : 1 h 59 min
Bit rate : 8 012 kb/s
Width : 1 920 pixels
Height : 816 pixels
Display aspect ratio : 2.35:1
Frame rate mode : Constant
Frame rate : 23.976 FPS
Color space : YUV
Chroma subsampling : 4:2:0
Bit depth : 8 bits
Scan type : Progressive
Bits/(Pixel*Frame) : 0.213
Stream size : 6.68 GiB (95%)
Writing library : x264 core 65 r999 cc51047
Encoding settings : cabac=1 / ref=5 / deblock=1:0:0 / analyse=0x3:0x133 / me=umh / subme=7 / psy_rd=1.0:0.0 / mixed_ref=1 / me_range=16 / chroma_me=1 / trellis=1 / 8x8dct=1 / cqm=0 / deadzone=21,11 / chroma_qp_offset=-2 / threads=6 / nr=0 / decimate=1 / mbaff=0 / bframes=3 / b_pyramid=1 / b_adapt=1 / b_bias=0 / direct=1 / wpredb=1 / keyint=250 / keyint_min=25 / scenecut=40(pre) / rc=2pass / bitrate=8012 / ratetol=1.0 / qcomp=0.60 / qpmin=10 / qpmax=51 / qpstep=4 / cplxblur=20.0 / qblur=0.5 / ip_ratio=1.40 / pb_ratio=1.30 / aq=1:1.00
Language : English
Default : Yes
Forced : No

Audio
ID : 2
Format : AC-3
Format/Info : Audio Coding 3
Commercial name : Dolby Digital
Codec ID : A_AC3
Duration : 1 h 59 min
Bit rate mode : Constant
Bit rate : 448 kb/s
Channel(s) : 6 channels
Channel layout : L R C LFE Ls Rs
Sampling rate : 48.0 kHz
Frame rate : 31.250 FPS (1536 SPF)
Compression mode : Lossy
Stream size : 383 MiB (5%)
Language : English
Service kind : Complete Main
Default : Yes
Forced : No
AC3_metadata cmixlev : -4.5 dB
surmixlev : -6 dB

Menu
00:00:00.000 : en:00:00:00.000
00:02:43.830 : en:00:02:43.830
00:06:42.193 : en:00:06:42.193
00:08:17.372 : en:00:08:17.372
00:10:40.098 : en:00:10:40.098
00:16:00.501 : en:00:16:00.501
00:19:39.220 : en:00:19:39.220
00:23:13.309 : en:00:23:13.309
00:29:40.320 : en:00:29:40.320
00:34:01.081 : en:00:34:01.081
00:36:01.076 : en:00:36:01.076
00:41:03.252 : en:00:41:03.252
00:43:27.688 : en:00:43:27.688
00:47:33.059 : en:00:47:33.059
01:01:35.275 : en:01:01:35.275
01:08:18.219 : en:01:08:18.219
01:17:17.758 : en:01:17:17.758
01:18:34.793 : en:01:18:34.793
01:22:12.761 : en:01:22:12.761
01:26:22.844 : en:01:26:22.844
01:35:58.920 : en:01:35:58.920
01:39:09.944 : en:01:39:09.944
01:47:21.352 : en:01:47:21.352
01:55:30.173 : en:01:55:30.173

Screens:





Thanks Seeders!

Downloads: 71
Category: Movies/HD
Size: 7.1 GB
Show Files »
files
Added: 2024-04-13 07:02:22
Language: English
Title: The Untouchables
Rating: 76
Genres: CrimeDramaHistoryThriller
Year: 1987
Summery: Young Treasury Agent Elliot Ness arrives in Chicago and is deternimed to take down Al Capone but it's not going to be easy, because Capone has the police in his pocket. Ness meets Jimmy Malone a veteran patrolman and probably the most honorable one in the force. He asks Malone to help him get Capone but Malone warns him that if he goes after Capone, he is going to war.
Peers: Seeders : 102 , Leechers : 22
Tags: Crime Drama Thriller 
Release name: The Untouchables (1987) 1080p H264 AC-3 BDE
Trackers:

udp://open.stealth.si:80/announce

udp://exodus.desync.com:6969/announce

udp://tracker.cyberia.is:6969/announce

udp://tracker.opentrackr.org:1337/announce

udp://tracker.torrent.eu.org:451/announce

udp://explodie.org:6969/announce

udp://tracker.birkenwald.de:6969/announce

udp://tracker.moeking.me:6969/announce

udp://ipv4.tracker.harry.lu:80/announce

udp://odd-hd.fr:6969/announce

udp://tracker.jamesthebard.net:6969/announce

udp://tracker.picotorrent.one:6969/announce

udp://tracker.0x7c0.com:6969/announce

udp://oh.fuuuuuck.com:6969/announce

udp://ttk2.nbaonlineservice.com:6969/announce





By using this site you agree to and accept our user agreement. If you havent read the user agreement please do so here